<?xml version="1.0" standalone="no"?>
<!DOCTYPE svg PUBLIC "-//W3C//DTD SVG 1.1//EN" "http://www.w3.org/Graphics/SVG/1.1/DTD/svg11.dtd">
<svg xmlns="http://www.w3.org/2000/svg">
<metadata>Copyright (C) 2025 by original authors @ fontello.com</metadata>
<defs>
<font id="fontello" horiz-adv-x="1000" >
<font-face font-family="fontello" font-weight="400" font-stretch="normal" units-per-em="1000" ascent="850" descent="-150" />
<missing-glyph horiz-adv-x="1000" />
<glyph glyph-name="cancel" unicode="&#xe800;" d="M724 112q0-22-15-38l-76-76q-16-15-38-15t-38 15l-164 165-164-165q-16-15-38-15t-38 15l-76 76q-16 16-16 38t16 38l164 164-164 164q-16 16-16 38t16 38l76 76q16 16 38 16t38-16l164-164 164 164q16 16 38 16t38-16l76-76q15-15 15-38t-15-38l-164-164 164-164q15-15 15-38z" horiz-adv-x="785.7" />

<glyph glyph-name="search" unicode="&#xe801;" d="M643 386q0 103-73 176t-177 74-177-74-73-176 73-177 177-73 177 73 73 177z m286-465q0-29-22-50t-50-21q-30 0-50 21l-191 191q-100-69-223-69-80 0-153 31t-125 84-84 125-31 153 31 152 84 126 125 84 153 31 153-31 125-84 84-126 31-152q0-123-69-223l191-191q21-21 21-51z" horiz-adv-x="928.6" />

<glyph glyph-name="login" unicode="&#xe802;" d="M661 350q0-14-11-25l-303-304q-11-10-26-10t-25 10-10 25v161h-250q-15 0-25 11t-11 25v214q0 15 11 25t25 11h250v161q0 14 10 25t25 10 26-10l303-304q11-10 11-25z m196 196v-392q0-67-47-114t-114-47h-178q-7 0-13 5t-5 13q0 2-1 11t0 15 2 13 5 11 12 3h178q37 0 64 27t26 63v392q0 37-26 64t-64 26h-174t-6 0-6 2-5 3-4 5-1 8q0 2-1 11t0 15 2 13 5 11 12 3h178q67 0 114-47t47-114z" horiz-adv-x="857.1" />

<glyph glyph-name="mastodon-brands-solid" unicode="&#xe803;" d="M846 500c0 190-125 246-125 246-122 56-446 55-567 0 0 0-124-56-124-246 0-226-13-506 206-565 79-20 147-25 202-22 99 6 154 36 154 36l-3 72s-71-23-150-20c-79 3-163 9-175 105a200 200 0 0 0-2 28c167-41 310-18 349-13 110 13 205 80 217 142 19 97 18 237 18 237z m-147-244h-91v223c0 97-125 101-125-14v-122h-90v122c0 115-125 111-125 14v-223h-92c0 238-10 289 36 342 51 56 156 60 203-12l23-38 22 38c47 72 153 68 203 12 46-54 36-104 36-342z" horiz-adv-x="875" />

<glyph glyph-name="star" unicode="&#xe804;" d="M929 489q0-12-15-27l-202-197 48-279q0-4 0-12 0-11-6-19t-17-9q-10 0-22 7l-251 132-250-132q-12-7-23-7-11 0-17 9t-6 19q0 4 1 12l48 279-203 197q-14 15-14 27 0 21 31 26l280 40 126 254q11 23 27 23t28-23l125-254 280-40q32-5 32-26z" horiz-adv-x="928.6" />

<glyph glyph-name="star-empty" unicode="&#xe805;" d="M635 290l170 166-235 34-106 213-105-213-236-34 171-166-41-235 211 111 211-111z m294 199q0-12-15-27l-202-197 48-279q0-4 0-12 0-28-23-28-10 0-22 7l-251 132-250-132q-12-7-23-7-11 0-17 9t-6 19q0 4 1 12l48 279-203 197q-14 15-14 27 0 21 31 26l280 40 126 254q11 23 27 23t28-23l125-254 280-40q32-5 32-26z" horiz-adv-x="928.6" />

<glyph glyph-name="docker" unicode="&#xe86e;" d="M683 389h-129v116h129v-116z m0 399h-129v-119h129v119z m153-283h-129v-116h129v116z m-305 141h-129v-118h129v118z m152 0h-129v-118h129v118z m541-196c-28 19-93 26-143 17-6 47-32 87-80 124l-27 18-18-27c-36-54-46-144-8-203-17-9-50-22-94-21h-849c-17-99 11-228 86-316 72-86 181-130 323-130 307 0 535 142 641 399 42-1 132 0 178 88 3 5 13 26 17 34l-26 17z m-998 55h-129v-116h129v116z m152 0h-129v-116h129v116z m153 0h-129v-116h129v116z m-153 141h-129v-118h129v118z" horiz-adv-x="1250" />

<glyph glyph-name="hard-drive-solid" unicode="&#xe86f;" d="M0 663c0 68 56 125 125 125h750c69 0 125-57 125-125v-361c-33 30-77 48-125 48h-750c-48 0-92-18-125-48v361z m125-375h750c69 0 125-57 125-125v-125c0-69-56-126-125-126h-750c-69 0-125 57-125 126v125c0 68 56 125 125 125z m500-250a63 63 0 1 1 0 125 63 63 0 1 1 0-125z m250 62a63 63 0 1 1-125 0 63 63 0 1 1 125 0z" horiz-adv-x="1000" />

<glyph glyph-name="x-twitter" unicode="&#xe870;" d="M760 756h138l-301-344 354-468h-277l-218 284-248-284h-138l322 368-340 444h285l196-259 227 259z m-48-730h76l-493 652h-82l499-652z" horiz-adv-x="1000" />

<glyph glyph-name="flipboard" unicode="&#xe872;" d="M0 788v-876h875v876h-875z m700-350h-175v-175h-175v-175h-175v525h525v-175z" horiz-adv-x="875" />

<glyph glyph-name="raspberry-pi" unicode="&#xe8b8;" d="M727 396l-8 13c1 90-41 127-90 155 14 4 30 7 34 26 26 7 31 18 33 31 7 4 29 17 27 38 12 9 19 20 16 36 13 14 17 27 11 38 16 20 9 30 2 40 12 22 2 46-32 42-14 20-43 15-47 15-6 6-12 12-33 9-13 12-28 10-43 4-18 15-31 3-44-1-22 7-28-3-38-7-24 5-32-6-43-17l-14 0c-36-21-54-64-60-86-7 22-25 65-61 86l-14 0c-11 11-19 22-43 17-11 4-15 14-38 7-9 3-17 8-27 8-5 0-10-2-17-7-15 6-30 8-43-4-21 3-28-2-32-9-5 0-34 5-48-15-34 4-44-20-32-42-7-10-14-20 2-40-5-11-2-24 11-38-3-16 4-27 16-36-2-21 20-34 27-38 2-13 8-24 33-31 5-18 20-22 35-26-49-28-91-65-91-155l-7-13c-57-34-107-142-28-230 5-27 14-47 21-69 12-88 87-130 107-135 29-21 60-42 102-57 40-40 83-55 126-55h1c44 0 86 15 126 55 42 15 73 36 102 57 20 5 95 47 106 135 8 22 17 42 22 69 79 88 29 196-27 230z m-44 16c-3-37-193 127-160 132 89 15 163-37 160-132z m-84-182c-48-31-117-11-154 44s-28 126 20 157c48 30 116 10 154-45s28-125-20-156z m-132 563c1-8 3-13 5-15 11 11 19 23 33 34 0-7-3-14 5-19 7 10 17 19 30 26-6-11-1-14 3-18 10 8 19 17 38 24-6-6-13-12-5-19 10 6 21 12 45 17-6-6-17-12-10-18 13 4 27 8 43 10-7-6-14-12-7-17 13 4 33 10 51 5l-12-12c-1-1 28-1 47-1-7-10-14-19-18-36 2-2 11-1 20 0-9-19-25-24-29-32 6-5 14-4 22-1-6-13-20-23-31-33 3-2 8-4 19-2-10-11-22-21-37-30 3-2 12-2 20-3-13-12-30-19-46-27 8-6 14-4 20-4-11-10-30-14-48-20 3-5 7-7 14-8-19-10-45-6-53-11 2-5 7-9 13-11-30-2-112 1-127 63 30 34 86 73 183 122-75-25-143-59-200-104-67 31-21 109 12 140z m-68-224c48 1 106-35 106-68 0-29-41-53-105-52-63 0-105 29-105 58 0 23 51 63 104 62z m-240 25c7 1 11 3 14 8-17 5-36 10-48 20 6 0 12-2 20 4-16 8-33 15-46 27 8 1 17 0 20 3-15 9-27 19-37 30 11-2 16 0 19 2-11 10-25 20-31 33 8-3 16-4 22 1-4 8-20 13-29 32 9-1 18-2 20 0-4 17-11 26-18 36 19 0 48 0 47 1l-12 12c19 5 38-1 52-5 6 5-1 11-8 17 16-2 30-6 43-10 7 6-4 12-10 18 25-5 35-11 45-17 8 7 1 13-4 19 18-7 28-16 38-24 3 4 8 7 2 18 13-7 23-16 30-26 8 5 5 13 5 19 14-11 22-23 33-34 2 2 4 7 5 15 33-31 79-109 12-140-56 45-124 79-199 104 96-49 152-88 183-122-16-62-98-65-128-63 6 2 12 6 13 11-7 6-34 1-53 11z m118-47c32-6-158-169-161-133-3 95 72 148 161 133z m-202-365c-47 37-61 144 24 192 52 14 18-210-24-192z m177-192c-26-15-89-9-134 55-30 53-26 108-5 124 32 19 81-7 119-50 33-39 48-108 20-129z m-51 234c-48 31-57 101-20 156s107 76 154 45 57-101 20-156c-38-56-107-76-154-45z m199-343c-57-2-113 46-112 63-1 25 69 44 115 43 47 2 109-14 109-37 1-21-56-70-112-69z m115 244c1-58-51-105-114-105-64-1-116 46-116 104v1c-1 58 51 105 114 106 64 0 116-47 116-105v-1z m161-83c-49-68-116-70-141-52-26 25-6 100 29 141 41 46 85 75 115 52 21-20 33-96-3-141z m45 143c-42-19-76 205-25 192 86-48 71-156 25-192z" horiz-adv-x="795" />

<glyph glyph-name="ubuntu" unicode="&#xe8b9;" d="M484 834c-267 0-484-216-484-484s217-484 484-484 485 216 485 484-217 484-485 484z m103-181c18 29 56 40 85 23 30-18 40-56 23-86-17-29-55-40-85-22-30 17-40 55-23 85z m-416-365c-35 0-63 28-63 62 0 34 28 62 63 62 34 0 62-28 62-62 0-34-28-62-62-62z m55-6c43 35 43 101 0 136 16 64 56 119 110 155l46-78c-100-71-100-219 0-290l-46-78c-54 36-93 91-110 155z m446-258c-30-17-67-7-85 23-17 30-7 68 23 85 30 18 68 8 85-22 17-30 7-68-23-86z m1 136c-52 20-110-13-118-68-10-3-96-28-189 18l44 79c111-52 241 23 252 145l90-1c-5-68-34-128-79-173z m-12 206c-10 121-139 198-251 145l-44 79c93 46 178 21 189 18 8-55 66-88 118-68 45-45 74-105 78-173l-90-1z" horiz-adv-x="969" />

<glyph glyph-name="python" unicode="&#xe8ba;" d="M859 458c-15 61-44 106-104 106h-79v-92c0-72-61-133-130-133h-209c-57 0-104-49-104-106v-199c0-56 49-90 104-106 66-19 130-23 209 0 52 16 104 46 104 106v80h-208v26h313c60 0 83 43 104 106 22 66 21 129 0 212z m-300-397c22 0 39-18 39-40 0-22-17-40-39-40-21 0-39 18-39 40 0 22 18 40 39 40z m-231 304h208c58 0 105 48 105 107v199c0 56-48 99-105 108-70 12-146 11-208 0-88-16-105-48-105-109v-79h209v-27h-287c-61 0-114-36-130-106-20-79-20-129 0-212 15-61 50-106 111-106h71v96c0 69 60 129 131 129z m-13 279c-22 0-40 18-40 40 1 22 18 39 40 39 21 0 39-17 39-39s-18-40-39-40z" horiz-adv-x="875" />

<glyph glyph-name="html5" unicode="&#xe8bb;" d="M0 788l68-773 306-103 308 103 68 773h-750z m602-250h-359l8-97h343l-27-290-191-52v-1h-2l-193 53-11 148h93l7-74 104-28 105 28 12 122h-326l-25 284h471l-9-93z" horiz-adv-x="750" />

<glyph glyph-name="cplusplus" unicode="&#xea36;" d="M877 600l-433-250-141-82c26-40 72-66 123-66 53 0 102 28 128 74l128-74c-52-91-151-148-256-148-106 0-199 56-252 140l-163-94c7-12 17-23 28-29l367-212c21-12 56-12 77 0l367 212c11 6 21 17 28 29 6 12 11 26 11 38v424c0 12-5 26-12 38z m-130-233h32v32h33v-32h33v-33h-33v-33h-33v33h-32v33z m-124 0h33v32h33v-32h33v-33h-33v-33h-33v33h-33v33z m227 262l-367 212c-21 12-56 12-77 0l-367-212c-22-12-39-42-39-67v-424c0-12 4-26 11-38l163 94c-28 45-44 99-44 156 0 163 133 296 296 296 105 0 204-56 256-148l-128-74c-26 46-75 74-128 74-82 0-148-66-148-148 0-30 9-58 25-82l141 82 433 250c-7 12-16 23-27 29z" horiz-adv-x="889" />

<glyph glyph-name="c" unicode="&#xea37;" d="M880 604c-103-60-478-277-574-332 58-90 197-87 251 8l128-74c-111-195-394-196-508-8l-163-94c7-12 17-23 28-29l367-212c21-12 56-12 77 0l367 212c11 6 20 17 27 29 7 12 12 25 12 38v424c-1 12-5 26-12 38z m-27 29l-367 212c-21 12-56 12-77 0l-367-212c-22-13-39-43-39-67v-424c0-12 4-26 11-38l163 94c-122 192 22 454 252 452 105 0 203-57 256-148l-128-74c-26 45-75 74-128 74-117 0-189-134-123-230 94 54 473 273 574 332-7 12-16 22-27 29z" horiz-adv-x="889" />

<glyph glyph-name="js" unicode="&#xea38;" d="M0 788v-876h875v876h-875z m476-683c0-85-50-124-123-124-65 0-104 34-123 75l67 41c13-23 25-42 53-42 27 0 44 10 44 51v280h82v-281z m195-124c-77 0-126 36-150 84l67 39c18-29 41-50 81-50 34 0 56 17 56 40 0 29-22 38-60 55l-21 9c-59 25-98 57-98 124 0 62 47 108 120 108 52 0 90-18 117-65l-64-41c-14 25-29 35-53 35-24 0-39-15-39-35 0-25 15-35 50-50l21-9c70-30 109-61 109-129 0-74-58-115-136-115z" horiz-adv-x="875" />

<glyph glyph-name="csharp" unicode="&#xea39;" d="M880 604c-103-60-478-277-574-332 58-90 197-87 251 8l128-74c-111-195-394-196-508-8l-163-94c7-12 17-23 28-29l367-212c21-12 56-12 77 0l367 212c11 6 20 17 27 29 7 12 12 25 12 38v424c-1 12-5 26-12 38z m-27 29l-367 212c-21 12-56 12-77 0l-367-212c-22-13-39-43-39-67v-424c0-12 4-26 11-38l163 94c-122 192 22 454 252 452 105 0 203-57 256-148l-128-74c-26 45-75 74-128 74-117 0-189-134-123-230 94 54 473 273 574 332-7 12-16 22-27 29z m-178-259v22h177v-22h-177z m0-70v22h177v-22h-177z m24-48l21 188h31l-21-188h-31z m77 0l21 188h32l-21-188h-32z" horiz-adv-x="889" />

<glyph glyph-name="music" unicode="&#xf001;" d="M1000 788l0-688c0-69-84-125-187-125s-188 56-188 125 84 125 188 125c22 0 42-3 62-8v361l-500-147v-456c0-69-84-125-187-125s-188 56-188 125 84 125 188 125c22 0 42-3 62-8v511c0 27 18 51 44 60l625 184c40 13 81-17 81-59z" horiz-adv-x="1000" />

<glyph glyph-name="heart" unicode="&#xf004;" d="M903 728c123-105 129-293 19-406l-378-391c-24-25-64-25-88 0l-378 391c-110 113-104 301 19 406 107 91 267 75 365-27l38-39 39 39c98 102 257 118 364 27z" horiz-adv-x="1000" />

<glyph glyph-name="user" unicode="&#xf007;" d="M438 350c-139 0-250 112-250 250s111 250 250 250 250-112 250-250-112-250-250-250z m175-62c144 0 262-118 262-263v-81c0-52-42-94-94-94h-687c-52 0-94 42-94 94v81c0 145 118 263 263 263h32c44-20 92-32 143-32s99 12 142 32h33z" horiz-adv-x="875" />

<glyph glyph-name="th-large" unicode="&#xf009;" d="M578 788h375c26 0 47-21 47-47v-313c0-26-21-47-47-47h-375c-26 0-47 21-47 47v313c0 26 21 47 47 47z m-156 0c26 0 47-21 47-47v-313c0-26-21-47-47-47h-375c-26 0-47 21-47 47v313c0 26 21 47 47 47h375z m-422-516c0 26 21 47 47 47h375c26 0 47-21 47-47v-313c0-26-21-47-47-47h-375c-26 0-47 21-47 47v313z m578-360c-26 0-47 21-47 47v313c0 26 21 47 47 47h375c26 0 47-21 47-47v-313c0-26-21-47-47-47h-375z" horiz-adv-x="1000" />

<glyph glyph-name="th" unicode="&#xf00a;" d="M292 741v-157c0-25-21-46-47-46h-198c-26 0-47 21-47 46v157c0 26 21 47 47 47h198c26 0 47-21 47-47z m354-469c0-26-21-47-47-47h-198c-26 0-47 21-47 47v156c0 26 21 47 47 47h198c26 0 47-21 47-47v-156z m62 469c0 26 21 47 47 47h198c26 0 47-21 47-47v-157c0-25-21-46-47-46h-198c-26 0-47 21-47 46v157z m-62-157c0-25-21-46-47-46h-198c-26 0-47 21-47 46v157c0 26 21 47 47 47h198c26 0 47-21 47-47v-157z m-401-109c26 0 47-21 47-47v-156c0-26-21-47-47-47h-198c-26 0-47 21-47 47v156c0 26 21 47 47 47h198z m-245-359c0 26 21 47 47 47h198c26 0 47-21 47-47v-157c0-26-21-47-47-47h-198c-26 0-47 21-47 47v157z m755 109c-26 0-47 21-47 47v156c0 26 21 47 47 47h198c26 0 47-21 47-47v-156c0-26-21-47-47-47h-198z m0-313c-26 0-47 21-47 47v157c0 26 21 47 47 47h198c26 0 47-21 47-47v-157c0-26-21-47-47-47h-198z m-401 204c0 26 21 47 47 47h198c26 0 47-21 47-47v-157c0-26-21-47-47-47h-198c-26 0-47 21-47 47v157z" horiz-adv-x="1000" />

<glyph glyph-name="check" unicode="&#xf00c;" d="M851 687c9 9 24 9 33 0l56-55c9-9 9-24 0-33l-586-586c-9-9-24-9-33 0l-261 261c-9 9-9 24 0 33l56 55c9 9 24 9 33 0l189-189z" horiz-adv-x="998" />

<glyph glyph-name="search-plus" unicode="&#xf00e;" d="M609 467v-47c0-13-10-23-23-23h-133v-133c0-13-10-23-23-23h-47c-13 0-24 10-24 23v133h-132c-13 0-24 10-24 23v47c0 13 11 24 24 24h132v132c0 13 11 24 24 24h47c13 0 23-11 23-24v-132h133c13 0 23-11 23-24z m384-566l-44-44c-9-9-24-9-33 0l-237 237c-5 4-7 10-7 17v25c-71-61-164-98-266-98-224 0-406 181-406 406s182 406 406 406 407-182 407-406c0-102-38-195-99-266h26c6 0 12-2 16-7l237-237c9-9 9-24 0-33z m-274 543c0 172-140 312-313 312s-312-140-312-312 140-313 312-313 313 140 313 313z" horiz-adv-x="1000" />

<glyph glyph-name="power-off" unicode="&#xf011;" d="M781 744c123-88 203-231 203-394 0-267-216-484-483-484-267-1-485 216-485 483-1 163 80 307 202 395 23 16 55 10 69-15l31-55c11-20 6-46-13-60-81-60-133-156-133-264 0-180 145-328 328-328 179 0 329 145 328 330 0 101-48 199-133 262-19 14-24 40-13 60l31 55c14 24 46 32 68 15z m-203-410c0-26-21-46-47-46h-62c-26 0-47 20-47 46v469c0 26 21 47 47 47h62c26 0 47-21 47-47v-469z" horiz-adv-x="998" />

<glyph glyph-name="signal" unicode="&#xf012;" d="M422 288c17 0 31-14 31-32v-375c0-17-14-31-31-31h-94c-17 0-31 14-31 31v375c0 18 14 32 31 32h94z m-250-188c17 0 31-14 31-31v-188c0-17-14-31-31-31h-94c-17 0-31 14-31 31v188c0 17 14 31 31 31h94z m500 375c17 0 31-14 31-31v-563c0-17-14-31-31-31h-94c-17 0-31 14-31 31v563c0 17 14 31 31 31h94z m250 188c17 0 31-14 31-32v-750c0-17-14-31-31-31h-94c-17 0-31 14-31 31v750c0 18 14 32 31 32h94z m250 187c17 0 31-14 31-31v-938c0-17-14-31-31-31h-94c-17 0-31 14-31 31v938c0 17 14 31 31 31h94z" horiz-adv-x="1250" />

<glyph glyph-name="cog" unicode="&#xf013;" d="M952 233c10-5 14-16 11-27-22-70-59-133-107-185-7-8-19-10-29-4l-83 48c-35-30-75-53-119-69v-96c0-11-7-21-18-23-68-15-142-16-213 0-11 2-19 12-19 23v96c-43 15-84 39-119 69l-83-48c-9-6-21-4-29 4-48 52-85 115-106 185-4 10 1 22 10 27l83 48c-8 46-8 92 0 137l-83 48c-9 6-14 17-10 28 21 70 58 132 106 185 8 8 20 10 29 4l83-48c35 30 76 53 119 69v96c0 11 8 20 18 23 69 15 142 16 214 0 10-3 18-12 18-23v-96c44-15 84-39 119-69l83 48c9 6 21 4 29-4 48-53 85-115 107-185 3-11-1-22-11-27l-83-48c8-46 8-92 0-138z m-452-39c86 0 156 70 156 156s-70 156-156 156-156-70-156-156 70-156 156-156z" horiz-adv-x="1000" />

<glyph glyph-name="home" unicode="&#xf015;" d="M548 560c3 3 10 6 15 6 4 0 11-3 15-6l360-296v-320c0-18-14-32-32-32l-218 1c-18 0-32 14-32 31 0 0 0 0 0 0v187c0 18-14 32-31 32h-125c-17 0-31-14-31-32v-187c0-17-14-31-31-31l-219-1c-17 0-31 14-31 32v320z m568-201c5-4 9-12 9-18 0-5-2-12-5-15l-50-61c-4-4-12-8-18-8-5 0-11 2-15 5l-459 379c-4 2-11 5-15 5-5 0-12-3-15-5l-460-379c-3-3-10-5-15-5-6 0-14 4-18 8l-50 61c-3 3-5 10-5 15 0 6 4 14 9 18l494 407c14 12 41 21 59 21 19 0 46-9 60-21l175-144v142c0 13 10 23 23 23h110c13 0 23-10 23-23v-271z" horiz-adv-x="1125" />

<glyph glyph-name="clock" unicode="&#xf017;" d="M500 834c268 0 484-216 484-484s-216-484-484-484-484 216-484 484 216 484 484 484z m0-875c216 0 391 175 391 391s-175 391-391 391-391-175-391-391 175-391 391-391z m121 204l-166 121c-6 4-10 11-10 19v320c0 13 11 24 24 24h62c13 0 24-11 24-24v-276l130-95c11-8 13-22 5-33l-36-51c-8-10-23-12-33-5z" horiz-adv-x="1000" />

<glyph glyph-name="download" unicode="&#xf019;" d="M422 850h156c26 0 47-21 47-47v-328h171c35 0 52-42 28-67l-297-297c-15-14-39-14-54 0l-297 297c-25 25-7 67 28 67h171v328c0 26 21 47 47 47z m578-734v-219c0-26-21-47-47-47h-906c-26 0-47 21-47 47v219c0 26 21 47 47 47h286l96-96c39-39 103-39 142 0l96 96h286c26 0 47-21 47-47z m-242-172c0 21-18 39-39 39s-39-18-39-39 17-39 39-39 39 17 39 39z m125 0c0 21-18 39-39 39s-39-18-39-39 17-39 39-39 39 17 39 39z" horiz-adv-x="1000" />

<glyph glyph-name="sync" unicode="&#xf021;" d="M861 825c0 14 10 25 24 25h92c13 0 24-10 24-23v-392c0-13-11-23-24-23h-391c-13 0-23 10-23 23v93c0 13 11 24 24 23l198-9c-61 92-166 152-285 152-162 0-298-112-334-263-3-11-12-18-23-18h-96c-15 0-26 13-23 27 42 225 239 394 476 394 148 0 280-66 369-170z m-361-819c162 0 298 112 334 263 3 11 12 19 23 19h96c15 0 26-14 23-28-42-225-239-394-476-394-148 0-280 66-369 170l8-161c1-14-10-25-23-25h-93c-12 0-23 10-23 23v392c0 13 11 23 23 23h392c13 0 23-10 23-23v-93c0-13-11-24-24-23l-199 9c61-91 166-152 285-152z" horiz-adv-x="1000" />

<glyph glyph-name="lock" unicode="&#xf023;" d="M781 413c52 0 94-42 94-94v-375c0-52-42-94-94-94h-687c-52 0-94 42-94 94v375c0 52 42 94 94 94h47v140c0 164 133 297 297 297s296-133 296-297v-140h47z m-203 0v140c0 78-63 141-140 141s-141-63-141-141v-140h281z" horiz-adv-x="875" />

<glyph glyph-name="headphones" unicode="&#xf025;" d="M500 788c276 0 500-224 500-500v-94c0-22-15-47-35-56l-28-14c-4-118-100-212-218-212h-47c-26 0-47 21-47 47v344c0 26 21 47 47 47h47c61 0 116-25 156-66v4c0 206-168 375-375 375s-375-169-375-375v-4c40 41 95 66 156 66h47c26 0 47-21 47-47v-344c0-26-21-47-47-47h-47c-118 0-214 94-218 212l-28 14c-19 9-35 34-35 56v0 94c0 276 224 500 500 500z" horiz-adv-x="1000" />

<glyph glyph-name="volume-up" unicode="&#xf028;" d="M420 711c29 30 80 9 80-33v-656c0-42-51-63-80-33l-174 174h-199c-26 0-47 21-47 46v282c0 26 21 47 47 47h199z m456 100c156-102 249-275 249-461s-93-359-249-461c-23-15-52-7-66 14-14 21-8 51 14 65 129 85 207 228 207 382s-78 297-207 382c-22 14-28 44-14 65 15 22 44 28 66 14z m62-461c0-124-63-238-168-305-23-15-52-6-65 14-14 23-7 52 15 66 77 49 124 133 124 225s-47 176-124 225c-22 14-29 44-15 66 14 22 43 28 65 14 105-67 168-181 168-305z m-277 150c55-30 89-88 89-150s-34-120-89-150c-23-12-51-4-64 18-12 23-4 52 18 64 26 14 41 40 41 68 0 28-15 54-41 68-22 13-31 41-18 64 13 22 41 31 64 18z" horiz-adv-x="1125" />

<glyph glyph-name="tags" unicode="&#xf02c;" d="M973 409c36-37 36-96 0-133l-399-399c-37-36-96-36-133 0l-413 414c-16 15-28 45-28 67v398c0 52 42 94 94 94h398c22 0 52-12 67-27z m-754 129c52 0 94 42 94 93s-42 94-94 94-94-42-94-94 42-93 94-93z m1004-262l-399-399c-37-36-96-36-133 0l0 1 340 340c33 33 51 78 51 124s-18 92-51 125l-384 383h95c22 0 52-12 67-27l414-414c36-37 36-96 0-133z" horiz-adv-x="1248" />

<glyph glyph-name="bookmark" unicode="&#xf02e;" d="M0-150v906c0 52 42 94 94 94h562c52 0 94-42 94-94v-906l-375 219z" horiz-adv-x="750" />

<glyph glyph-name="print" unicode="&#xf02f;" d="M781 334c26 0 47-21 47-46 0-26-21-47-47-47s-47 21-47 47c0 25 21 46 47 46z m63 172c86 0 156-70 156-156v-250c0-17-14-31-31-31h-125v-188c0-17-14-31-31-31h-625c-18 0-32 14-32 31v188h-125c-17 0-31 14-31 31v250c0 86 70 156 156 156v282c0 34 27 62 60 62h433c25 0 48-10 66-27l101-102c18-17 28-41 28-66v-149z m-594 250v-250h500v125h-94c-17 0-31 14-31 32v93h-375z m500-812v125h-500v-125h500z m156 219v187c0 35-28 63-62 63h-688c-34 0-62-28-62-63v-187h812z" horiz-adv-x="1000" />

<glyph glyph-name="camera" unicode="&#xf030;" d="M1000 569v-563c0-52-42-94-94-94h-812c-52 0-94 42-94 94v563c0 52 42 94 94 94h172l24 64c13 36 48 61 87 61h246c39 0 74-25 87-61l24-64h172c52 0 94-42 94-94z m-266-281c0 129-105 234-234 234s-234-105-234-234 105-235 234-235 234 105 234 235z m-62 0c0-95-77-172-172-172s-172 77-172 172 77 171 172 171 172-77 172-171z" horiz-adv-x="1000" />

<glyph glyph-name="list" unicode="&#xf03a;" d="M250 623v79c0 17 14 31 31 31h688c17 0 31-14 31-31v-79c0-17-14-31-31-31h-688c-17 0-31 14-31 31z m31-343c-17 0-31 14-31 31v78c0 17 14 31 31 31h688c17 0 31-14 31-31v-78c0-17-14-31-31-31h-688z m0-313c-17 0-31 14-31 31v79c0 17 14 31 31 31h688c17 0 31-14 31-31v-79c0-17-14-31-31-31h-688z m-250 602c-17 0-31 14-31 31v125c0 17 14 31 31 31h125c18 0 32-14 32-31v-125c0-17-14-31-32-31h-125z m0-313c-17 0-31 14-31 32v125c0 17 14 31 31 31h125c18 0 32-14 32-31v-125c0-18-14-32-32-32h-125z m0-312c-17 0-31 14-31 31v125c0 17 14 31 31 31h125c18 0 32-14 32-31v-125c0-17-14-31-32-31h-125z" horiz-adv-x="1000" />

<glyph glyph-name="video" unicode="&#xf03d;" d="M657 725c51 0 93-42 93-93v-564c0-51-42-93-93-93h-564c-51 0-93 42-93 93v564c0 51 42 93 93 93h564z m370-74c41 29 98 0 98-50v-502c0-50-57-79-98-50l-214 147v308z" horiz-adv-x="1125" />

<glyph glyph-name="image" unicode="&#xf03e;" d="M906 725c52 0 94-42 94-94v-562c0-52-42-94-94-94h-812c-52 0-94 42-94 94v562c0 52 42 94 94 94h812z m-11-656c6 0 11 5 11 12v539c0 6-5 11-11 11h-789c-7 0-12-5-12-11v-539c0-7 5-12 12-12h789z m-645 484c43 0 78-35 78-78s-35-78-78-78-78 35-78 78 35 78 78 78z m-62-390v93l77 77c9 10 24 10 33 0l77-77 233 234c10 9 24 9 34 0l171-171v-156h-625z" horiz-adv-x="1000" />

<glyph glyph-name="edit" unicode="&#xf044;" d="M786 688l177-177c7-7 7-19 0-27l-427-426-181-20c-24-3-45 18-42 42l20 181 426 427c8 7 20 7 27 0z m317 44c29-29 29-78 0-108l-69-69c-8-7-20-7-27 0l-176 176c-8 8-8 20 0 27l69 70c30 29 78 29 107 0z m-353-558c0 6 3 12 7 16l78 79c15 14 40 4 40-17v-308c0-52-42-94-94-94h-687c-52 0-94 42-94 94v687c0 52 42 94 94 94h558c21 0 31-25 17-40l-79-78c-4-4-10-7-16-7h-449v-625h625v199z" horiz-adv-x="1123" />

<glyph glyph-name="play" unicode="&#xf04b;" d="M829 431c61-36 61-125 0-162l-688-406c-61-37-141 7-141 81v812c0 82 86 114 141 81z" horiz-adv-x="873" />

<glyph glyph-name="ban" unicode="&#xf05e;" d="M500 834c268 0 484-216 484-484s-216-484-484-484-484 217-484 484 217 484 484 484z m254-230c-128 128-323 137-460 41l501-501c96 137 87 332-41 460z m-508-508c128-128 323-137 460-40l-500 500c-97-137-88-332 40-460z" horiz-adv-x="1000" />

<glyph glyph-name="exclamation-triangle" unicode="&#xf071;" d="M1112-9c36-63-9-141-81-141h-937c-72 0-117 78-81 141l468 812c36 63 127 63 163 0z m-549 168c-50 0-90-41-90-90s40-90 90-90 89 40 89 90-40 90-89 90z m-86 323l15-266c0-12 11-22 23-22h95c12 0 23 10 23 22l15 266c1 13-10 24-24 24h-123c-14 0-24-11-24-24z" horiz-adv-x="1125" />

<glyph glyph-name="calendar-alt" unicode="&#xf073;" d="M289 288h-78c-13 0-23 10-23 23v78c0 13 10 24 23 24h78c13 0 24-11 24-24v-78c0-13-11-23-24-23z m211 23c0-13-10-23-23-23h-79c-12 0-23 10-23 23v78c0 13 11 24 23 24h79c13 0 23-11 23-24v-78z m188 0c0-13-11-23-24-23h-78c-13 0-23 10-23 23v78c0 13 10 24 23 24h78c13 0 24-11 24-24v-78z m-188-188c0-12-10-23-23-23h-79c-12 0-23 11-23 23v79c0 13 11 23 23 23h79c13 0 23-10 23-23v-79z m-187 0c0-12-11-23-24-23h-78c-13 0-23 11-23 23v79c0 13 10 23 23 23h78c13 0 24-10 24-23v-79z m375 0c0-12-11-23-24-23h-78c-13 0-23 11-23 23v79c0 13 10 23 23 23h78c13 0 24-10 24-23v-79z m187 508v-687c0-52-42-94-94-94h-687c-52 0-94 42-94 94v687c0 52 42 94 94 94h94v102c0 13 10 23 23 23h78c13 0 24-10 24-23v-102h250v102c0 13 10 23 23 23h78c13 0 24-10 24-23v-102h93c52 0 94-42 94-94z m-94-676v583h-687v-583c0-6 5-11 12-11h664c6 0 11 5 11 11z" horiz-adv-x="875" />

<glyph glyph-name="shopping-cart" unicode="&#xf07a;" d="M1032 262c-5-22-24-37-46-37h-573l13-62h524c30 0 53-28 46-58l-11-47c37-18 62-55 62-99 0-60-49-109-109-109s-110 49-110 109c0 31 13 59 33 79h-409c20-20 32-48 32-79 0-60-49-109-109-109s-109 49-109 109c0 41 22 76 55 95l-138 671h-136c-26 0-47 21-47 47v31c0 26 21 47 47 47h200c22 0 42-16 46-37l18-88h767c30 0 53-28 46-57z" horiz-adv-x="1123" />

<glyph glyph-name="camera-retro" unicode="&#xf083;" d="M94 788h812c52 0 94-42 94-94v-688c0-52-42-94-94-94h-812c-52 0-94 42-94 94v688c0 52 42 94 94 94z m0-63c-17 0-31-14-31-31v-20c0-6 5-11 11-11h227c6 0 12 5 12 11v39c0 7-6 12-12 12h-207z m832-187c6 0 12 5 12 11v145c0 17-15 31-32 31h-493c-4 0-8-2-10-5l-59-89h-270c-6 0-11-5-11-11v-71c0-6 5-11 11-11h852z m-426-516c129 0 234 105 234 234s-105 235-234 235-234-105-234-235 105-234 234-234z m0 406c95 0 172-77 172-172s-77-172-172-172-172 78-172 172 77 172 172 172z m-94-203c17 0 32 14 32 31 0 35 28 63 62 63 17 0 31 14 31 31s-14 31-31 31c-69 0-125-56-125-125 0-17 14-31 31-31z" horiz-adv-x="1000" />

<glyph glyph-name="key" unicode="&#xf084;" d="M1000 506c0-190-154-343-344-343-22 0-43 2-64 6l-47-53c-7-9-23-16-35-16h-72v-78c0-26-21-47-47-47h-78v-78c0-26-21-47-47-47h-219c-26 0-47 21-47 47v152c0 13 5 25 14 34l316 316c-11 33-17 70-17 107 0 190 153 344 343 344 191 0 344-153 344-344z m-344 94c0-52 42-94 94-94s94 42 94 94-42 94-94 94-94-42-94-94z" horiz-adv-x="1000" />

<glyph glyph-name="cogs" unicode="&#xf085;" d="M1000 477l-16-28c-6-10-18-15-29-10-23 8-44 20-63 36-9 7-11 20-5 31l16 27c-14 16-24 34-31 54h-33c-11 0-22 8-24 20-3 24-4 48 0 73 2 11 13 20 24 20h33c7 20 17 38 31 53l-16 28c-6 10-4 24 5 31 19 15 40 28 63 36 11 4 23 0 29-10l16-28c21 4 42 4 62 0l16 28c6 10 19 14 30 10 23-8 44-21 62-36 9-7 12-21 6-31l-16-28c13-15 24-33 31-53h32c12 0 22-9 24-20 4-24 4-48 0-73-2-11-12-20-24-20h-32c-7-20-18-38-31-54l16-27c6-11 4-24-6-31-18-16-39-28-62-36-11-5-24 0-30 10l-16 28c-20-4-41-4-62 0z m-20 115c75-58 161 28 103 103-75 58-161-28-103-103z m-225-301l65-33c20-11 29-35 21-56-18-48-52-91-83-129-15-17-40-22-60-10l-56 33c-32-27-68-48-108-62v-66c0-23-16-42-38-46-48-8-98-9-148 0-23 4-39 23-39 46v66c-40 14-76 35-108 62l-56-33c-20-11-45-7-60 10-31 38-65 82-82 129-8 21 1 45 20 56l66 33c-8 41-8 83 0 124l-66 33c-19 11-28 35-20 57 17 47 51 90 82 128 15 18 40 22 60 11l56-33c32 27 68 48 108 62v66c0 22 16 42 38 45 48 9 99 9 148 1 23-4 39-24 39-46v-66c40-14 76-35 108-62l56 33c20 11 45 7 60-11 31-37 65-81 82-128 8-21 0-45-20-57l-65-33c7-41 7-83 0-124z m-230-41c115 150-56 322-207 206-115-150 56-322 207-206z m475-357l-16-28c-6-10-18-14-29-10-23 8-44 21-63 36-9 7-11 20-5 31l16 28c-14 15-24 33-31 53h-33c-11 0-22 9-24 20-3 24-4 48 0 73 2 11 13 20 24 20h33c7 20 17 38 31 54l-16 28c-6 10-4 23 5 30 19 16 40 28 63 37 11 4 23-1 29-11l16-28c21 4 42 4 62 0l16 28c6 10 19 15 30 11 23-9 44-21 62-37 9-7 12-20 6-30l-16-28c13-16 24-34 31-54h32c12 0 22-8 24-20 4-23 4-48 0-73-2-11-12-20-24-20h-32c-7-20-18-38-31-53l16-28c6-11 4-24-6-31-18-15-39-28-62-36-11-4-24 0-30 10l-16 28c-20-4-41-4-62 0z m-20 115c75-58 161 28 103 103-75 58-161-28-103-103z" horiz-adv-x="1248" />

<glyph glyph-name="comments" unicode="&#xf086;" d="M813 475c0-173-182-312-407-312-80 0-154 18-217 48-43-24-102-48-173-48-7 0-12 3-15 9s-1 12 3 17c1 1 44 47 70 106-46 51-74 113-74 180 0 173 182 313 406 313s407-140 407-313z m238-430c26-59 69-106 70-106 4-5 5-12 3-17-3-6-8-10-15-10-71 0-130 24-173 49-63-31-137-49-217-49-169 0-313 79-375 192 21-2 41-4 62-4 259 0 469 168 469 375 0 13-1 26-2 39 148-46 252-158 252-289 0-67-27-129-74-180z" horiz-adv-x="1125" />

<glyph glyph-name="sign-out" unicode="&#xf08b;" d="M352-25h-164c-104 0-188 84-188 188v375c0 103 84 187 188 187h164c13 0 23-10 23-23v-79c0-12-10-23-23-23h-164c-35 0-63-28-63-62v-375c0-35 28-63 63-63h164c13 0 23-10 23-23v-79c0-13-10-23-23-23z m230 592c-20 18-20 49-1 68l42 42c19 19 48 19 67 1l296-295c19-18 19-48 0-66l-297-295c-18-18-48-18-66 1l-43 42c-18 19-18 50 2 68l151 139h-374c-26 0-46 21-46 47v62c0 26 20 47 46 47h374z" horiz-adv-x="1000" />

<glyph glyph-name="link-ext" unicode="&#xf08e;" d="M786 332v-178q0-67-47-114t-114-47h-464q-67 0-114 47t-47 114v464q0 66 47 113t114 48h393q7 0 12-5t5-13v-36q0-8-5-13t-12-5h-393q-37 0-63-26t-27-63v-464q0-37 27-63t63-27h464q37 0 63 27t26 63v178q0 8 5 13t13 5h36q8 0 13-5t5-13z m214 482v-285q0-15-11-25t-25-11-25 11l-98 98-364-364q-5-6-13-6t-12 6l-64 64q-6 5-6 12t6 13l364 364-98 98q-11 11-11 25t11 25 25 11h285q15 0 25-11t11-25z" horiz-adv-x="1000" />

<glyph glyph-name="sign-in" unicode="&#xf090;" d="M268 635l43 42c18 19 48 19 66 1l297-295c18-18 18-48 0-66l-297-294c-18-19-48-19-66 0l-43 42c-19 19-18 50 2 68l151 139h-374c-26 0-47 21-47 47v62c0 26 21 47 47 47h374l-152 139c-19 18-20 49-1 68z m732-472c0-104-84-188-187-188h-165c-12 0-23 10-23 23v79c0 13 11 23 23 23h165c34 0 62 28 62 63v375c0 34-28 62-62 62h-165c-12 0-23 11-23 23v79c0 13 11 23 23 23h165c103 0 187-84 187-187v-375z" horiz-adv-x="1000" />

<glyph glyph-name="upload" unicode="&#xf093;" d="M578 100h-156c-26 0-47 21-47 47v328h-171c-35 0-52 42-28 67l297 297c15 15 39 15 54 0l297-297c24-25 7-67-28-67h-171v-328c0-26-21-47-47-47z m422 16v-219c0-26-21-47-47-47h-906c-26 0-47 21-47 47v219c0 26 21 47 47 47h266v-16c0-60 49-109 109-109h156c61 0 110 49 110 109v16h265c26 0 47-21 47-47z m-242-172c0 21-18 39-39 39s-39-18-39-39 17-39 39-39 39 17 39 39z m125 0c0 21-18 39-39 39s-39-18-39-39 17-39 39-39 39 17 39 39z" horiz-adv-x="1000" />

<glyph glyph-name="twitter" unicode="&#xf099;" d="M904 622q-37-54-90-93 0-8 0-23 0-73-21-145t-64-139-103-117-144-82-181-30q-151 0-276 81 19-2 43-2 126 0 224 77-59 1-105 36t-64 89q19-3 34-3 24 0 48 6-63 13-104 62t-41 115v2q38-21 82-23-37 25-59 64t-22 86q0 49 25 91 68-83 164-133t208-55q-5 21-5 41 0 75 53 127t127 53q79 0 132-57 61 12 115 44-21-64-80-100 52 6 104 28z" horiz-adv-x="928.6" />

<glyph glyph-name="facebook" unicode="&#xf09a;" d="M535 843v-147h-87q-48 0-65-20t-17-60v-106h164l-22-165h-142v-424h-171v424h-142v165h142v122q0 104 58 161t155 57q82 0 127-7z" horiz-adv-x="571.4" />

<glyph glyph-name="github" unicode="&#xf09b;" d="M324 74c0-4-4-7-10-7-7-1-11 2-11 7 0 4 4 7 10 7 6 0 11-3 11-7z m-61 9c2 4 7 6 12 4 6-2 10-6 9-10-1-4-7-6-12-4-6 1-10 6-9 10z m87 3c5 1 11-2 11-6 1-4-3-7-9-9-6-1-11 2-11 5-1 5 3 9 9 10z m128 748c271 0 491-205 491-476 0-217-133-402-328-467-25-5-34 11-34 24 0 16 1 97 1 163 0 46-15 75-33 91 109 12 224 27 224 215 0 54-19 81-51 115 6 13 22 65-5 133-40 13-134-53-134-53-39 11-81 17-123 17s-84-6-123-17c0 0-94 66-134 53-27-67-11-120-6-133-31-34-46-61-46-115 0-187 111-203 220-215-14-13-27-35-32-66-27-13-99-35-142 41-27 46-75 50-75 50-48 1-3-30-3-30 32-15 54-72 54-72 29-87 165-58 165-58 0-41 1-108 1-120 0-12-9-28-34-23-195 65-331 250-331 467 0 271 207 476 478 476z m-288-673c2 2 7 1 10-2 3-4 4-8 1-10-2-3-7-1-10 2-3 3-4 8-1 10z m-21 16c1 2 4 2 8 1 4-2 6-5 5-8-2-2-6-3-9-1-4 2-6 5-4 8z m63-70c3 3 8 3 13-2 4-4 5-9 2-12-2-3-8-3-12 2-5 4-6 10-3 12z m-22 29c3 2 8 0 11-4 3-5 3-10 0-12-3-2-8 0-11 4-3 5-3 10 0 12z" horiz-adv-x="968.8" />

<glyph glyph-name="rss" unicode="&#xf09e;" d="M214 100q0-45-31-76t-76-31-76 31-31 76 31 76 76 31 76-31 31-76z m286-69q1-15-9-26-10-12-27-12h-75q-14 0-24 9t-11 23q-12 128-103 219t-219 103q-14 1-23 11t-9 24v75q0 16 12 26 9 10 24 10h3q89-7 170-45t145-101q63-63 101-145t45-171z m286-1q1-15-10-26-10-11-26-11h-80q-14 0-25 10t-10 23q-7 120-57 228t-129 188-188 129-227 57q-14 1-24 11t-10 24v80q0 16 11 26 10 10 25 10h1q147-8 280-67t238-164q104-104 164-238t67-280z" horiz-adv-x="785.7" />

<glyph glyph-name="hdd" unicode="&#xf0a0;" d="M1125 256v-187c0-52-42-94-94-94h-937c-52 0-94 42-94 94v187c0 52 42 94 94 94h937c52 0 94-42 94-94z m-94 157h-937c-18 0-44-6-60-12l188 282c16 23 51 42 78 42h525c28 0 63-19 78-42l188-282c-15 6-42 12-60 12h0z m-93-188c-35 0-63-28-63-62s28-63 63-63 62 28 62 63-28 62-62 62z m-188 0c-34 0-62-28-62-62s28-63 62-63 63 28 63 63-28 62-63 62z" horiz-adv-x="1125" />

<glyph glyph-name="arrow-circle-right" unicode="&#xf0a9;" d="M500 834c268 0 484-216 484-484s-216-484-484-484-484 216-484 484 216 484 484 484z m-56-280l147-141h-357c-26 0-46-21-46-47v-32c0-26 20-46 46-46h357l-147-142c-19-18-20-48-1-67l21-21c19-18 48-18 67 0l259 259c18 18 18 48 0 66l-259 259c-19 19-49 19-67 0l-21-21c-19-19-18-49 1-67z" horiz-adv-x="1000" />

<glyph glyph-name="wrench" unicode="&#xf0ad;" d="M992 637c23-93-2-195-74-267-78-78-190-100-288-67l-417-416c-48-49-128-49-176 0s-49 128 0 176l416 417c-32 98-10 210 67 288 72 72 174 97 267 74 17-5 24-27 11-40l-145-145 22-132 132-23 145 146c13 13 35 7 40-11z m-867-709c26 0 47 21 47 47 0 26-21 47-47 47s-47-21-47-47c0-26 21-47 47-47z" horiz-adv-x="1000" />

<glyph glyph-name="tasks" unicode="&#xf0ae;" d="M1000 600c0-13-10-23-23-23h-579c-12 0-23 10-23 23v62c0 13 11 24 23 24h579c13 0 23-11 23-23v-63z m0-312c0-13-10-24-23-24h-579c-12 0-23 11-23 24v62c0 13 11 23 23 23h579c13 0 23-10 23-23v-62z m0-313c0-13-10-23-23-23h-579c-12 0-23 10-23 23v63c0 12 11 23 23 23h579c13 0 23-11 23-23v-63z m-683 748l-180-179c-9-9-24-9-33 0l-24 24-73 74c-9 9-9 24 0 33l24 24c9 9 24 9 33 0l57-57 138 139c10 9 24 9 34 0l24-24c9-10 9-25 0-34z m0-312l-180-180c-9-9-24-9-33 0l-24 25-73 73c-9 10-9 24 0 34l24 24c9 9 24 9 33 0l57-57 138 139c10 9 24 9 34 0l24-25c9-9 9-24 0-33z m-192-311c52 0 94-42 94-94s-42-94-94-94-93 42-93 94 41 94 93 94z" horiz-adv-x="1000" />

<glyph glyph-name="users" unicode="&#xf0c0;" d="M188 413c-69 0-125 56-125 125s56 125 125 125 125-57 125-125-57-125-125-125z m875 0c-69 0-125 56-125 125s56 125 125 125 125-57 125-125-57-125-125-125z m62-63c69 0 125-56 125-125v-62c0-35-28-63-62-63h-129c-12 93-68 171-147 214 23 22 54 36 88 36h125z m-500 0c-121 0-219 98-219 219s98 219 219 219 219-98 219-219-98-219-219-219z m150-62c124 0 225-101 225-225v-57c0-52-42-94-94-94h-562c-52 0-94 42-94 94v57c0 124 101 225 225 225h16c41-20 86-32 134-32s93 12 134 32h16z m-437 26c-79-43-134-121-147-214h-128c-35 0-63 28-63 63v62c0 69 56 125 125 125h125c34 0 65-14 88-36z" horiz-adv-x="1250" />

<glyph glyph-name="copy" unicode="&#xf0c5;" d="M625-25v-78c0-26-21-47-47-47h-531c-26 0-47 21-47 47v719c0 26 21 47 47 47h141v-579c0-60 49-109 109-109h328z m0 672c0-26 21-47 47-47h203v-516c0-25-21-46-47-46h-531c-26 0-47 21-47 46v719c0 26 21 47 47 47h328v-203z m236 61c8-8 14-23 14-34v-11h-187v187h11c11 0 26-6 34-14z" horiz-adv-x="875" />

<glyph glyph-name="envelope" unicode="&#xf0e0;" d="M981 477c8 6 19 1 19-9v-399c0-52-42-94-94-94h-812c-52 0-94 42-94 94v399c0 10 11 15 19 9 44-34 102-77 301-222 41-30 111-93 180-93 70 0 141 64 180 93 200 145 257 188 301 222z m-481-252c-45-1-110 57-143 81-259 188-279 205-339 251-11 9-18 23-18 37v37c0 52 42 94 94 94h812c52 0 94-42 94-94v-37c0-14-7-28-18-37-60-47-79-63-339-251-32-24-98-82-143-81z" horiz-adv-x="1000" />

<glyph glyph-name="linkedin-in" unicode="&#xf0e1;" d="M196-25h-181v584h181v-584z m-91 664c-58 0-105 48-105 106s47 105 105 105 105-47 105-105-47-106-105-106z m770-664h-181v284c0 68-1 155-94 155-95 0-109-74-109-150v-289h-181v584h174v-79h2c24 45 84 94 172 94 183 0 217-121 217-278v-321h0z" horiz-adv-x="1000" />

<glyph glyph-name="tachometer" unicode="&#xf0e4;" d="M563 788c310 0 562-252 562-563 0-103-28-200-76-283-11-19-32-30-54-30h-865c-22 0-43 11-54 30-48 83-76 180-76 283 0 311 252 563 563 563z m414-782c36 67 54 143 54 219 0 259-210 469-468 469s-469-210-469-469c0-76 18-152 54-219h829z m-275 576c25-8 38-35 30-59l-88-266c26-23 44-56 44-94 0-23-7-44-18-63h-215c-11 19-17 40-17 63 0 66 51 120 116 124l89 265c8 25 35 38 59 30z" horiz-adv-x="1125" />

<glyph glyph-name="bolt" unicode="&#xf0e7;" d="M578 538c36 0 59-40 41-71l-344-594c-9-14-24-23-41-23-30 0-52 28-45 58l90 380h-232c-28 0-50 25-47 53l63 468c3 24 23 41 46 41h282c30 0 53-29 45-59l-83-253h225z" horiz-adv-x="625" />

<glyph glyph-name="lightbulb" unicode="&#xf0eb;" d="M344 694c17 0 31-14 31-31s-14-32-31-32c-69 0-125-56-125-125 0-17-14-31-31-31s-32 14-32 31c0 104 84 188 188 188z m-156-741l0 85h312l0-85c0-6-2-12-5-17l-48-72c-6-9-16-14-26-14h-154c-11 0-20 5-26 14l-48 72c-4 5-5 11-5 17z m156 897c190 0 344-154 344-344 0-86-33-165-86-226-32-37-83-115-102-180v0h-94v0c0 8 2 21 5 28 11 35 45 127 121 214 40 45 62 104 62 164 0 138-112 250-250 250-134 0-250-106-250-250 0-60 22-118 62-164 76-88 110-179 121-214 3-9 4-18 4-28v0h-93v0c-19 65-70 143-103 180-53 61-85 140-85 226 0 182 144 344 344 344z" horiz-adv-x="687.5" />

<glyph glyph-name="exchange" unicode="&#xf0ec;" d="M0 522v31c0 26 21 47 47 47h746l-60 54c-19 18-19 49 0 67l21 22c18 18 48 18 66 0l162-161c24-25 24-64 0-89l-162-160c-18-19-48-19-66 0l-21 21c-19 18-19 49 0 67l60 54h-746c-26 0-47 21-47 47z m953-297c26 0 47-21 47-47v-31c0-26-21-47-47-47h-746l60-54c19-18 19-49 1-67l-22-22c-18-18-48-18-66 0l-162 161c-24 25-24 64 0 89l162 161c18 18 48 18 66 0l22-22c18-18 18-49-1-67l-60-54h746z" horiz-adv-x="1000" />

<glyph glyph-name="bell" unicode="&#xf0f3;" d="M438-150c-69 0-125 56-125 125h249c0-69-55-125-124-125z m420 292c12-12 17-27 17-42 0-32-25-62-63-62h-749c-38 0-63 30-63 62 0 15 5 30 17 42 38 41 108 102 108 302 0 152 107 273 250 303v41c0 34 28 62 63 62s62-28 62-62v-41c143-30 250-151 250-303 0-200 70-261 108-302z" horiz-adv-x="875" />

<glyph glyph-name="desktop" unicode="&#xf108;" d="M1031 850c52 0 94-42 94-94v-562c0-52-42-94-94-94h-937c-52 0-94 42-94 94v562c0 52 42 94 94 94h937z m-11-656c6 0 11 5 11 12v539c0 6-5 11-11 11h-914c-7 0-12-5-12-11v-539c0-7 5-12 12-12h914z m-82-297c0-26-21-47-47-47h-657c-26 0-46 21-46 47s20 47 46 47h193l37 109c3 9 12 16 22 16h154c10 0 19-7 22-16l36-109h193c26 0 47-21 47-47z" horiz-adv-x="1125" />

<glyph glyph-name="tablet" unicode="&#xf10a;" d="M500 38c0-35-28-63-62-63s-63 28-63 63c0 41 28 62 63 62s62-28 62-62z m375 718v-812c0-52-42-94-94-94h-687c-52 0-94 42-94 94v812c0 52 42 94 94 94h687c52 0 94-42 94-94z m-94-801v790c0 6-5 11-11 11h-664c-7 0-12-5-12-11v-790c0-6 5-11 12-11h664c6 0 11 5 11 11z" horiz-adv-x="875" />

<glyph glyph-name="mobile" unicode="&#xf10b;" d="M375 38c0-35-28-63-62-63s-63 28-63 63 28 62 63 62 62-28 62-62z m250 718v-812c0-52-42-94-94-94h-437c-52 0-94 42-94 94v812c0 52 42 94 94 94h437c52 0 94-42 94-94z m-94-801v790c0 6-5 11-11 11h-414c-7 0-12-5-12-11v-790c0-6 5-11 12-11h414c6 0 11 5 11 11z" horiz-adv-x="625" />

<glyph glyph-name="github-alt" unicode="&#xf113;" d="M364 208c0-41-22-108-72-108-51 0-72 67-72 108 0 41 21 108 72 108s72-67 72-108z m574 99c0-63-7-129-35-186-74-150-277-146-423-146-148 0-364-5-440 146-29 57-40 123-40 186 0 82 27 159 81 222-10 30-15 63-15 95 0 42 10 63 29 101 88 0 145-18 212-70 57 13 115 19 173 19 53 0 106-5 157-18 67 52 123 69 211 69 19-38 28-59 28-101 0-32-5-64-15-94 54-64 77-141 77-223z m-126-99c0 86-52 161-144 161-37 0-72-6-109-11-29-5-58-7-88-7-30 0-59 2-88 7-37 5-72 11-110 11-91 0-143-75-143-161 0-171 157-198 294-198h94c137 0 294 26 294 198z m-161 108c50 0 71-67 71-108 0-41-21-108-71-108s-72 67-72 108c0 41 21 108 72 108z" horiz-adv-x="937.5" />

<glyph glyph-name="gamepad" unicode="&#xf11b;" d="M938 663c172 0 312-140 312-313s-140-312-313-312c-87 0-166 35-223 93h-178c-57-58-136-93-223-93-173 0-313 139-313 312s140 313 313 313h625z m-438-352v78c0 13-10 24-23 24h-102v101c0 13-10 24-23 24h-79c-12 0-23-11-23-24v-101h-102c-12 0-23-11-23-24v-78c0-13 11-23 23-23h102v-102c0-13 11-23 23-23h79c13 0 23 10 23 23v102h102c13 0 23 10 23 23z m359-133c52 0 94 42 94 94s-42 94-94 94-93-42-93-94 42-94 93-94z m157 156c51 0 93 42 93 94s-42 94-93 94-94-42-94-94 42-94 94-94z" horiz-adv-x="1248" />

<glyph glyph-name="keyboard" unicode="&#xf11c;" d="M1031 725c52 0 94-42 94-94v-562c0-52-42-94-94-94h-937c-52 0-94 42-94 94v562c0 52 42 94 94 94h937z m16-656v562c0 9-7 16-16 16h-937c-9 0-16-7-16-16v-562c0-9 7-16 16-16h937c9 0 16 7 16 16z m-715 254c0-13-10-24-23-24h-55c-13 0-23 11-23 24v54c0 13 10 24 23 24h55c13 0 23-11 23-24v-54z m188 0c0-13-11-24-24-24h-55c-12 0-23 11-23 24v54c0 13 11 24 23 24h55c13 0 24-11 24-24v-54z m187 0c0-13-10-24-23-24h-55c-13 0-23 11-23 24v54c0 13 10 24 23 24h55c13 0 23-11 23-24v-54z m188 0c0-13-11-24-24-24h-55c-12 0-23 11-23 24v54c0 13 11 24 23 24h55c13 0 24-11 24-24v-54z m-657-160c0-13-10-24-23-24h-55c-13 0-23 11-23 24v54c0 13 10 24 23 24h55c13 0 23-11 23-24v-54z m750 0c0-13-10-24-23-24h-55c-13 0-23 11-23 24v54c0 13 10 24 23 24h55c13 0 23-11 23-24v-54z m-750 320c0-13-10-24-23-24h-55c-13 0-23 11-23 24v55c0 12 10 23 23 23h55c13 0 23-11 23-23v-55z m188 0c0-13-11-24-24-24h-54c-13 0-24 11-24 24v55c0 12 11 23 24 23h54c13 0 24-11 24-23v-55z m187 0c0-13-10-24-23-24h-55c-13 0-23 11-23 24v55c0 12 10 23 23 23h55c13 0 23-11 23-23v-55z m188 0c0-13-11-24-24-24h-54c-13 0-24 11-24 24v55c0 12 11 23 24 23h54c13 0 24-11 24-23v-55z m187 0c0-13-10-24-23-24h-55c-13 0-23 11-23 24v55c0 12 10 23 23 23h55c13 0 23-11 23-23v-55z m-191-309c0-13-11-23-24-23h-421c-13 0-24 10-24 23v32c0 12 11 23 24 23h421c13 0 24-11 24-23v-32z" horiz-adv-x="1125" />

<glyph glyph-name="terminal" unicode="&#xf120;" d="M504 317l-380-380c-18-18-48-18-66 0l-44 44c-19 19-19 48 0 67l301 302-301 302c-19 19-19 48 0 66l44 45c18 18 48 18 66 0l380-380c18-18 18-48 0-66z m746-358c0-26-21-47-47-47h-594c-25 0-46 21-46 47v63c0 26 21 47 46 47h594c26 0 47-21 47-47v-63z" horiz-adv-x="1250" />

<glyph glyph-name="microphone" unicode="&#xf130;" d="M344 163c-104 0-188 83-188 187v313c0 103 84 187 188 187s187-84 187-187v-313c0-104-84-187-187-187z m312 312c18 0 32-14 32-31v-94c0-174-130-317-297-340v-66h109c17 0 31-14 31-32v-31c0-17-14-31-31-31h-312c-18 0-32 14-32 31v31c0 18 14 32 32 32h109v67c-172 23-297 179-297 354v79c0 17 14 31 31 31h32c17 0 31-14 31-31v-83c0-130 95-247 225-260 149-14 275 103 275 249v94c0 17 14 31 31 31h31z" horiz-adv-x="687.5" />

<glyph glyph-name="youtube-play" unicode="&#xf16a;" d="M397 221l270 139-270 141v-280z m103 481q94 0 181-3t128-5l41-2q0 0 9-1t13-2 13-2 16-5 16-7 17-11 16-15q4-3 9-10t16-33 15-56q4-36 7-76t3-64v-98q1-81-10-162-4-30-14-55t-18-35l-8-9q-7-8-16-15t-17-10-16-7-16-5-13-2-13-2-9-1q-140-11-350-11-115 2-201 4t-111 4l-28 3-20 2q-20 3-30 5t-29 12-31 23q-4 3-9 10t-16 33-15 56q-4 36-7 76t-3 64v98q-1 81 10 162 4 31 14 55t18 35l8 9q8 9 16 15t17 11 16 7 16 5 13 2 13 2 9 1q140 10 350 10z" horiz-adv-x="1000" />

<glyph glyph-name="instagram" unicode="&#xf16d;" d="M571 350q0 59-41 101t-101 42-101-42-42-101 42-101 101-42 101 42 41 101z m77 0q0-91-64-156t-155-64-156 64-64 156 64 156 156 64 155-64 64-156z m61 229q0-21-15-36t-37-15-36 15-15 36 15 36 36 15 37-15 15-36z m-280 123q-4 0-43 0t-59 0-54-2-57-5-40-11q-28-11-49-32t-33-49q-6-16-10-40t-6-58-1-53 0-59 0-43 0-43 0-59 1-53 6-58 10-40q12-28 33-49t49-32q16-6 40-11t57-5 54-2 59 0 43 0 42 0 59 0 54 2 58 5 39 11q28 11 50 32t32 49q6 16 10 40t6 58 1 53 0 59 0 43 0 43 0 59-1 53-6 58-10 40q-11 28-32 49t-50 32q-16 6-39 11t-58 5-54 2-59 0-42 0z m428-352q0-128-3-177-5-116-69-180t-179-69q-50-3-177-3t-177 3q-116 6-180 69t-69 180q-3 49-3 177t3 177q5 116 69 180t180 69q49 3 177 3t177-3q116-6 179-69t69-180q3-49 3-177z" horiz-adv-x="857.1" />

<glyph glyph-name="apple" unicode="&#xf179;" d="M615 325c0-3-7-119 120-179-24-72-105-232-200-233-55 0-87 35-149 35-64 0-99-34-148-35-95-3-185 173-210 244-19 55-28 108-28 159 0 173 116 258 225 260 53 0 120-38 149-38 28 0 104 45 173 40 73-6 129-35 165-87-65-40-98-94-97-166z m-111 321c-38-45-85-71-136-67-4 54 16 102 50 140 31 37 86 66 133 69 2-21 6-79-47-142z" horiz-adv-x="734.4" />

<glyph glyph-name="windows" unicode="&#xf17a;" d="M0 667l359 49v-346h-359v297z m0-634v293h359v-342z m398-55v348h477v-414z m0 744l477 66v-418h-477v352z" horiz-adv-x="1000" />

<glyph glyph-name="android" unicode="&#xf17b;" d="M175 451v-227c0-30-24-54-54-54-30 0-58 25-58 54v227c0 29 28 53 58 53 30 0 54-24 54-53z m21-307v350h483v-350c0-32-26-58-57-58h-40v-119c0-72-108-72-108 0v119h-73v-119c0-72-108-72-108 0l0 119h-39c-32 0-58 26-58 58z m485 369h-487c0 84 50 157 124 194l-37 69c-6 10 8 16 13 8l38-70c68 31 146 29 211 0l38 70c5 8 19 2 13-8l-37-69c74-37 124-110 124-194z m-334 109c0 11-9 20-20 20-12 0-20-9-20-20 0-11 9-21 20-21 11 0 20 10 20 21z m222 0c0 11-9 20-20 20-12 0-21-9-21-20 0-11 9-21 21-21 11 0 20 10 20 21z m185-118c30 0 59-23 59-53v-227c0-29-29-54-59-54-30 0-54 24-54 54v227c0 30 24 53 54 53z" horiz-adv-x="1000" />

<glyph glyph-name="linux" unicode="&#xf17c;" d="M431 609c-2 1-6 1-6 4-1 0 0 1 1 2 3 1 7 1 11 0 2-2 6-3 6-6 0-2-4-3-6-3-2 0-4 2-6 3z m-42-3c-2 0-6 1-6 3 0 2 4 4 6 5 4 2 8 2 11 1 1-1 2-2 1-3-1-2-4-2-7-3-2-1-3-3-5-3z m431-545c22-24 31-42 31-58-1-16-13-27-28-35-29-18-72-31-99-63-28-33-62-52-94-55-32-2-63 12-79 45v0c-2 4-4 9-5 13-42-2-78 11-107 8-43-2-70-12-95-13-9-20-28-34-50-39-32-7-71 0-110 20-36 19-82 18-115 25-17 3-32 10-40 24-7 14-6 34 5 62 3 10 0 25-2 40-1 8-2 16-2 23 0 9 1 17 5 25 9 16 23 23 36 28 13 5 25 8 34 16 10 11 19 28 32 40-5 33 0 69 12 104 25 74 77 145 114 189 31 44 40 80 43 126 3 62-47 264 153 264 158 0 149-167 148-256-1-59 32-99 65-141 30-35 68-87 91-145 18-48 25-102 7-155 3-1 5-2 8-4 3-1 5-3 8-5 13-11 17-28 20-44 4-16 7-31 14-39z m-383 619c-6-15-8-30-6-43 7-2 18-5 26-9-4 24 8 46 23 45 17 0 27-30 18-53-2-4-6-7-8-9 13-5 21-8 25-10 15 19 21 52 8 79-19 42-67 43-86 0z m-80 22c-36 0-46-73-16-102 15 11 14 9 12 11-16 13-13 54 3 55 12 1 21-21 19-38 6 4 13 7 20 9 3 37-18 65-38 65z m-26-119c-8-6-11-14-8-24 3-9 12-20 28-29 16-9 24-23 39-30 6-2 12-3 19-4 36-2 53 22 75 29 23 7 39 22 44 36 6 16-4 28-20 35-22 10-32 10-44 18-21 13-37 18-51 18-28 0-45-19-55-28-1-1-15-12-27-21z m6-652c4 40-61 96-80 135l-38 69c-13 18-27 29-43 31-15 3-24-2-34-13-10-10-18-24-28-35-16-13-18-12-39-20-12-4-22-8-28-22-6-9-5-23-2-39 2-15 6-31 1-46v-1c-10-27-10-42-5-51 15-30 91-12 149-43 62-32 142-34 147 35z m-2 51c73-51 160-31 223 14 6 21 12 41 13 56 2 30 3 56 9 78 6 25 18 45 42 54 4 41 36 41 74 24 37-17 51-31 45-51 2 0 4 0 8 0 10 33-28 55-60 68 6 23 5 47-1 70-11 49-44 93-68 115-5 0-5-4 5-13 22-21 72-96 45-166-7 2-15 3-21 3-10 57-34 104-46 126-23 42-58 128-73 187-9-12-24-23-43-29-10-3-19-11-31-18-28-15-59-17-83 3-9 7-16 15-25 20-3 2-10 6-12 8-4-74-53-167-77-220-16-39-26-80-27-120-42 57-11 129 5 161 19 34 22 44 17 40-16-27-43-71-53-115-5-24-6-47 1-69s21-42 48-59c0 0 48-27 75-63 14-20 19-37 14-49-5-13-19-17-33-17 10-12 21-26 29-38z m502 22c1 10-6 26-26 48-20 22-14 65-34 81-13 12-26 11-44 10-15-17-50-38-75-31-22 5-35 31-37 57 0 0-1 0-2-1-13-7-21-21-26-41-5-20-7-46-9-76-1-23-12-51-19-79-7-26-11-49-2-71 14-28 38-40 66-38 27 3 59 20 85 50 43 52 122 58 123 91z m-498 556c-7 5-7 13-4 12 5 0 6-7 9-9 4-4 9-9 15-14 12-9 28-19 48-19s44 12 59 20c8 5 18 13 27 19 6 5 6 11 12 10 5 0 1-6-7-13-7-6-19-15-28-20-19-9-40-21-63-21-22 0-40 11-53 21-6 5-12 10-15 14z" horiz-adv-x="1000" />

<glyph glyph-name="sun" unicode="&#xf185;" d="M500 538c-103 0-187-85-187-188s84-187 187-187 188 84 188 187-85 188-188 188z m481-158l-185 93 66 196c9 26-17 52-43 43l-196-66-93 185c-12 25-48 25-60 0l-93-185-196 66c-26 9-52-17-43-43l66-196-185-93c-25-12-25-48 0-60l185-93-66-196c-8-26 17-52 43-43l196 66 93-185c12-25 48-25 60 0l93 185 196-66c26-9 51 17 42 43l-65 196 185 93c25 12 25 48 0 60z m-304-207c-98-97-256-97-354 0s-97 256 0 354c98 97 256 97 354 0s97-256 0-354z" horiz-adv-x="1000" />

<glyph glyph-name="moon-stars" unicode="&#xf186;" d="M649 17c-182-34-349 105-349 289 0 106 57 203 149 255 14 8 10 30-6 33-231 42-443-135-443-369 0-207 168-375 375-375 115 0 221 52 291 139 10 13-1 31-17 28z m-55 646l31 62 63 31-63 32-31 62-31-62-63-32 63-31 31-62z m302-167l-52 104-52-104-104-52 104-52 52-104 52 104 104 52-104 52z" horiz-adv-x="1000" />

<glyph glyph-name="wordpress" unicode="&#xf19a;" d="M121 519l198-543c-139 67-234 210-234 374 0 60 13 117 36 169z m660-148c0-36-14-77-32-134l-41-139-150 447c25 1 47 4 47 4 22 2 20 35-3 34 0 0-67-5-110-5-41 0-110 5-110 5-22 1-25-33-2-34 0 0 21-3 43-4l65-177-91-273-151 450c25 1 47 4 47 4 22 2 20 35-3 34 0 0-67-5-110-5-8 0-17 0-27 0 74 113 202 188 347 188 108 0 207-42 281-110-2 1-4 1-6 1-41 0-69-36-69-74 0-34 19-63 40-97 16-28 35-64 35-115z m-274-57l128-350c1-2 2-4 3-6-43-15-90-24-138-24-41 0-80 6-117 17z m358 235c32-59 50-127 50-199 0-153-83-287-206-359l127 367c24 59 31 107 31 149 0 15-1 29-2 42z m119-199c0-267-217-484-484-484-267 0-484 217-484 484 0 267 217 484 484 484 267 0 484-217 484-484z m-22 0c0 255-207 462-462 462-255 0-462-207-462-462s207-462 462-462c255 0 462 207 462 462z" horiz-adv-x="1000" />

<glyph glyph-name="google" unicode="&#xf1a0;" d="M953 339c0-277-189-473-469-473-268 0-484 216-484 484s216 484 484 484c131 0 241-47 325-126l-132-127c-172 166-493 41-493-231 0-169 135-306 300-306 192 0 264 138 275 209h-275v167h462c4-25 7-49 7-81z" horiz-adv-x="953.1" />

<glyph glyph-name="steam-squared" unicode="&#xf1b7;" d="M693 489q0 45-32 76t-76 32-76-32-32-76q0-45 32-76t76-32 76 32 32 76z m-340-328q0-46-33-79t-78-32q-31 0-57 17t-40 43q29-12 54-23 34-13 67 1t48 48q13 34-1 67t-48 47l-46 19q12 2 23 2 46 0 78-32t33-78z m504 457v-536q0-66-47-113t-114-48h-535q-67 0-114 48t-47 113v86l96-39q11-51 52-85t94-33q58 0 101 39t49 96l192 141q84 0 143 59t59 142q0 84-59 142t-143 59q-82 0-141-58t-60-141l-125-180q-5 1-16 1-42 0-76-21l-166 67v261q0 66 47 113t114 48h535q67 0 114-48t47-113z m-138-130q0-56-39-95t-96-40-95 40-39 95 39 95 95 40q57 0 96-39t39-96z" horiz-adv-x="857.1" />

<glyph glyph-name="database" unicode="&#xf1c0;" d="M875 707v-89c0-79-196-143-437-143s-438 64-438 143v89c0 79 196 143 438 143s437-64 437-143z m0-201v-201c0-78-196-142-437-142s-438 64-438 142v201c94-64 266-95 438-95s343 31 437 95z m0-312v-201c0-79-196-143-437-143s-438 64-438 143v201c94-65 266-95 438-95s343 30 437 95z" horiz-adv-x="875" />

<glyph glyph-name="circle-notch" unicode="&#xf1ce;" d="M563 793c0 20 18 35 37 31 220-46 384-241 384-474 0-267-216-484-483-484-268-1-484 214-485 481-2 235 164 431 384 477 19 4 38-11 38-31v-32c0-14-11-27-25-30-174-39-304-195-304-381 0-216 175-391 391-391 216 0 391 175 391 391 0 186-130 342-304 381-14 3-24 16-24 30v32z" horiz-adv-x="1000" />

<glyph glyph-name="plug" unicode="&#xf1e6;" d="M500 569v219c0 34 28 62 63 62s62-28 62-62v-219h-125z m219-31c17 0 31-14 31-32v-62c0-17-14-31-31-31h-31v-63c0-151-108-277-250-306v-194h-125v194c-143 29-250 155-250 306v63h-32c-17 0-31 14-31 31v62c0 18 14 32 31 32h688z m-469 31h-125v219c0 34 28 62 63 62s62-28 62-62v-219z" horiz-adv-x="750" />

<glyph glyph-name="wifi" unicode="&#xf1eb;" d="M1240 548c13-12 13-33 1-45l-67-67c-12-12-31-12-44 0-285 261-725 261-1010 0-13-12-32-12-44 0l-67 67c-12 12-12 33 1 45 346 319 884 320 1230 0z m-615-385c69 0 125-56 125-125s-56-126-125-126-125 56-125 126 56 125 125 125z m396 163c13-12 14-33 1-45l-67-67c-12-11-31-12-43-1-164 141-410 141-574 0-12-11-31-10-43 1l-67 67c-13 12-12 33 1 45 225 199 567 199 792 0z" horiz-adv-x="1250" />

<glyph glyph-name="paypal" unicode="&#xf1ed;" d="M848 490q10-47-3-114-48-248-315-248h-24q-14 0-25-9t-13-24l-3-11-30-193-1-8q-3-15-14-24t-25-9h-140q-12 0-18 8t-5 20q5 32 14 94t15 94 15 93 15 94q3 21 24 21h73q75-2 132 11 98 22 160 81 57 53 87 137 13 39 19 74 1 4 2 4t2 1 3-2q44-33 55-90z m-96 157q0-60-26-132-45-130-168-176-64-22-141-23 0-1-50-1l-51 1q-55 0-65-54-2-4-48-295 0-6-7-6h-164q-12 0-21 9t-6 22l130 821q2 16 15 26t29 11h333q19 0 55-7t62-18q60-23 91-69t32-109z" horiz-adv-x="857.1" />

<glyph glyph-name="toggle-on" unicode="&#xf205;" d="M750 725c207 0 375-168 375-375s-168-375-375-375h-375c-207 0-375 168-375 375s168 375 375 375h375z m0-625c138 0 250 112 250 250 0 138-112 250-250 250-138 0-250-112-250-250 0-138 112-250 250-250z" horiz-adv-x="1125" />

<glyph glyph-name="pinterest" unicode="&#xf231;" d="M0 517q0 60 21 113t58 93 85 69 103 44 113 14q88 0 164-37t123-108 47-160q0-54-10-105t-34-99-56-83-80-58-106-21q-38 0-75 18t-54 49q-5-22-15-63t-14-53-11-40-15-39-17-35-26-44-35-48l-7-3-5 6q-9 88-9 105 0 51 12 115t37 161 29 113q-18 36-18 94 0 47 29 87t74 41q34 0 53-23t19-57q0-37-24-106t-25-105q0-35 25-58t61-23q31 0 57 14t44 38 31 53 21 61 11 62 4 56q0 96-61 150t-160 54q-111 0-186-72t-75-183q0-25 7-48t15-36 15-26 7-17q0-15-8-40t-21-25q-1 0-9 1-29 9-51 31t-34 53-18 60-6 60z" horiz-adv-x="714.3" />

<glyph glyph-name="server" unicode="&#xf233;" d="M938 538h-875c-35 0-63 28-63 62v125c0 35 28 63 63 63h875c34 0 62-28 62-63v-125c0-34-28-62-62-62z m-94 171c-26 0-47-21-47-46s21-47 47-47 47 21 47 47-21 46-47 46z m-125 0c-26 0-47-21-47-46s21-47 47-47 47 21 47 47-21 46-47 46z m219-484h-875c-35 0-63 28-63 63v125c0 34 28 62 63 62h875c34 0 62-28 62-62v-125c0-35-28-63-62-63z m-94 172c-26 0-47-21-47-47s21-47 47-47 47 21 47 47-21 47-47 47z m-125 0c-26 0-47-21-47-47s21-47 47-47 47 21 47 47-21 47-47 47z m219-485h-875c-35 0-63 28-63 63v125c0 35 28 63 63 63h875c34 0 62-28 62-63v-125c0-35-28-63-62-63z m-94 172c-26 0-47-21-47-46s21-47 47-47 47 21 47 47-21 46-47 46z m-125 0c-26 0-47-21-47-46s21-47 47-47 47 21 47 47-21 46-47 46z" horiz-adv-x="1000" />

<glyph glyph-name="user-plus" unicode="&#xf234;" d="M1219 444c17 0 31-14 31-31v-63c0-17-14-31-31-31h-125v-125c0-17-14-31-31-31h-63c-17 0-31 14-31 31v125h-125c-17 0-31 14-31 31v63c0 17 14 31 31 31h125v125c0 17 14 31 31 31h63c17 0 31-14 31-31v-125h125z m-781-94c-139 0-250 112-250 250s111 250 250 250 250-112 250-250-112-250-250-250z m175-62c144 0 262-118 262-263v-81c0-52-42-94-94-94h-687c-52 0-94 42-94 94v81c0 145 118 263 263 263h32c44-20 92-32 143-32s99 12 142 32h33z" horiz-adv-x="1250" />

<glyph glyph-name="battery-three-quarters" unicode="&#xf241;" d="M813 225h-625v250h625v-250z m281 344h-1000v-438h1000v125h62v188h-62v125z m0 94c52 0 94-42 94-94v-31h15c26 0 47-21 47-47v-282c0-25-21-46-47-46h-15v-32c0-51-42-93-94-93h-1000c-52 0-94 42-94 93v438c0 52 42 94 94 94h1000z" horiz-adv-x="1250" />

<glyph glyph-name="mouse-pointer" unicode="&#xf245;" d="M590 207h-207l109-265c8-19-1-40-18-47l-96-42c-18-8-38 1-46 19l-104 252-169-174c-22-23-59-5-59 25v839c0 32 39 48 59 25l556-571c22-22 6-61-25-61z" horiz-adv-x="625" />

<glyph glyph-name="sticky-note" unicode="&#xf249;" d="M609 225c-25 0-46-21-46-47v-266h-516c-26 0-47 21-47 47v782c0 26 21 47 47 47h781c26 0 47-21 47-47v-516h-266z m252-107l-191-192c-9-9-21-14-33-14h-12v251h250v-12c0-13-5-25-14-33z" horiz-adv-x="875" />

<glyph glyph-name="calendar-check" unicode="&#xf274;" d="M781 725c52 0 94-42 94-94v-687c0-52-42-94-94-94h-687c-52 0-94 42-94 94v687c0 52 42 94 94 94h94v102c0 13 10 23 23 23h78c13 0 24-10 24-23v-102h250v102c0 13 10 23 23 23h78c13 0 24-10 24-23v-102h93z m-11-781c6 0 11 5 11 11v583h-687v-583c0-6 5-11 12-11h664z m-104 392l-278-276c-9-9-24-9-33 0l-146 148c-10 9-9 24 0 33l44 44c9 9 24 9 33 0l86-87 217 215c10 9 24 9 33 0l44-44c10-9 10-24 0-33z" horiz-adv-x="875" />

<glyph glyph-name="usb" unicode="&#xf287;" d="M1253 350c0-6-3-12-9-15l-174-104c-3-2-5-3-9-3-2 0-6 1-8 2-6 4-9 9-9 16v69h-466c49-77 79-209 136-209h52v53c0 9 7 17 17 17h174c10 0 17-8 17-17v-174c0-10-7-18-17-18h-174c-10 0-17 8-17 18v52h-52c-148 0-159 278-244 278h-196c-16-60-70-104-135-104-76 0-139 62-139 139s63 139 139 139c65 0 119-44 135-104 76 0 86-19 146 118 78 174 113 160 212 160 15 41 53 70 99 70 58 0 104-47 104-105 0-58-46-104-104-104-46 0-84 29-99 69h-58c-57 0-86-131-136-209h606v70c0 6 3 12 9 15s12 3 17 0l174-105c6-2 9-8 9-14z" horiz-adv-x="1252" />

<glyph glyph-name="shopping-basket" unicode="&#xf291;" d="M1125 428v-31c0-26-21-47-47-47h-15l-51-357c-7-46-47-81-93-81h-713c-46 0-86 35-92 81l-51 357h-16c-26 0-47 21-47 47v31c0 26 21 47 47 47h131l209 287c20 28 59 34 87 14 28-21 34-60 14-88l-155-213h459l-155 213c-20 28-14 67 14 88 28 20 67 14 87-14l209-287h131c26 0 47-21 47-47z m-516-344v219c0 26-21 47-46 47s-47-21-47-47v-219c0-25 21-46 47-46s46 21 46 46z m219 0v219c0 26-21 47-47 47s-47-21-47-47v-219c0-25 21-46 47-46s47 21 47 46z m-437 0v219c0 26-21 47-47 47s-47-21-47-47v-219c0-25 21-46 47-46s47 21 47 46z" horiz-adv-x="1125" />

<glyph glyph-name="bluetooth" unicode="&#xf293;" d="M572 516l-84-84-1 168z m-85-429l1 168 83-84z m326 256c0-401-141-493-362-493s-388 92-388 493c0 402 162 507 384 507s366-105 366-507z m-310 0l155 173-244 263v-346l-144 144-53-52 181-182-181-181 52-53 145 144 4-332 249 249z" horiz-adv-x="1000" />

<glyph glyph-name="id-card" unicode="&#xf2c2;" d="M1031 788c52 0 94-42 94-94v-31h-1125v31c0 52 42 94 94 94h937z m-1031-782v594h1125v-594c0-52-42-94-94-94h-937c-52 0-94 42-94 94z m688 453v-31c0-8 7-15 15-15h281c9 0 16 7 16 15v31c0 9-7 16-16 16h-281c-8 0-15-7-15-16z m0-125v-31c0-8 7-15 15-15h281c9 0 16 7 16 15v31c0 9-7 16-16 16h-281c-8 0-15-7-15-16z m0-125v-31c0-8 7-15 15-15h281c9 0 16 7 16 15v31c0 9-7 16-16 16h-281c-8 0-15-7-15-16z m-344 266c-69 0-125-56-125-125s56-125 125-125 125 56 125 125-56 125-125 125z m-213-399c-6-19 10-38 31-38h364c20 0 37 19 30 38-16 50-63 87-118 87h-16c-24-10-51-16-78-16s-54 6-78 16h-16c-55 0-102-37-119-87z" horiz-adv-x="1125" />

<glyph glyph-name="thermometer-three-quarters" unicode="&#xf2c8;" d="M359 100c0-60-49-109-109-109s-109 49-109 109c0 44 25 81 62 99v354c0 26 21 47 47 47s47-21 47-47v-354c37-18 62-55 62-99z m79 165c38-44 62-102 62-165 0-138-112-250-250-250-1 0-1 0-2 0-137 1-249 114-248 251 0 63 24 121 63 164v398c0 103 83 187 187 187s188-84 188-187v-398z m-16-165c0 73-41 112-63 136v427c0 60-49 109-109 109-60 0-109-49-109-109v-427c-22-24-62-63-63-135 0-94 77-172 171-173l1 0c95 0 172 77 172 172z" horiz-adv-x="500" />

<glyph glyph-name="microchip" unicode="&#xf2db;" d="M813 756v-812c0-52-42-94-94-94h-438c-51 0-93 42-93 94v812c0 52 42 94 93 94h438c52 0 94-42 94-94z m187-113v-23c0-7-5-12-12-12h-35v-12c0-6-5-12-12-12h-82v94h82c7 0 12-5 12-12v-11h35c7 0 12-6 12-12z m0-187v-24c0-6-5-12-12-12h-35v-11c0-7-5-12-12-12h-82v94h82c7 0 12-6 12-12v-12h35c7 0 12-5 12-11z m0-188v-23c0-7-5-12-12-12h-35v-12c0-6-5-12-12-12h-82v94h82c7 0 12-5 12-12v-11h35c7 0 12-6 12-12z m0-187v-24c0-6-5-12-12-12h-35v-11c0-7-5-12-12-12h-82v94h82c7 0 12-6 12-12v-12h35c7 0 12-5 12-11z m-941 35h82v-94h-82c-7 0-12 5-12 12v11h-35c-7 0-12 6-12 12v24c0 6 5 11 12 11h35v12c0 6 5 12 12 12z m0 187h82v-94h-82c-7 0-12 6-12 12v12h-35c-7 0-12 5-12 12v23c0 6 5 12 12 12h35v11c0 7 5 12 12 12z m0 188h82v-94h-82c-7 0-12 5-12 12v11h-35c-7 0-12 6-12 12v24c0 6 5 11 12 11h35v12c0 6 5 12 12 12z m0 187h82v-94h-82c-7 0-12 6-12 12v12h-35c-7 0-12 5-12 12v23c0 6 5 12 12 12h35v11c0 7 5 12 12 12z" horiz-adv-x="1000" />

<glyph glyph-name="home-assistant" unicode="&#xf350;" d="M66-144c-30 5-54 24-63 53l-3 11v427c0 401 1 427 3 436 6 22 19 40 37 49 20 11-17 10 452 10 295 0 425-1 431-2 22-4 42-19 52-39s10 15 10-453c0-295-1-426-2-432-5-30-33-56-64-60-13-2-842-2-853 0z m417 165c0 0-11 13-26 28l-27 26h-29c-16 0-30-1-30-1s-3-4-6-7c-10-10-25-12-37-3-8 5-13 19-10 28 6 23 35 29 50 10l4-6h18c12 0 16 1 16 2 0 1-15 15-33 33l-31 31-7-1c-30-5-45 33-20 51 12 7 30 4 38-8 3-5 4-8 4-17v-10l31-32c18-18 32-32 33-32s3 4 3 17v16l-7 6c-11 9-14 21-8 34 6 11 18 17 31 14 11-2 22-15 22-26 0-8-5-18-12-23l-6-4v-58l20-20c11-11 21-20 22-19s0 33 0 72v71l-20 20c-11 11-30 30-43 42l-23 22h-53l-7-7c-7-9-12-10-21-10-9 0-15 2-21 9-4 5-8 13-8 17s4 14 8 18c6 7 12 10 21 10s16-4 22-11l6-7h15c10 0 15 1 15 2s-10 13-27 30l-29 29v31c0 17-1 32-1 33s-3 3-6 5c-6 4-10 13-10 23 0 22 24 34 42 22 15-10 16-36 1-45-3-2-6-5-7-6s0-15 0-29l1-24 27-26c15-15 28-27 28-26s1 8 1 17v16l-6 6c-11 9-15 22-9 34 11 22 45 18 52-6 2-10-3-24-12-30l-5-3v-58l33-32c18-18 33-33 34-33 2 0 2 21 2 101v100l-19 20-21 19h-9c-8 0-11 0-16 3-17 10-19 35-2 46 9 6 21 6 30 1 10-7 15-18 13-29l-2-6 18-18c10-10 18-18 19-18s10 8 19 18l18 17-2 7c-2 17 12 33 28 33 6 0 15-4 20-10 18-19 0-49-26-45l-7 1-19-19-20-20v-143c0-78 1-143 2-143s11 10 23 23l22 22v59l-6 5c-8 7-12 12-12 22 0 9 3 16 10 21 9 9 26 9 35 0 14-12 14-29 0-42l-8-7v-17c0-9 1-18 1-19 2-1 7 3 28 24l25 25v48l-20 20-20 21-7-1c-10-1-16 1-22 6-13 11-14 26-4 38 12 14 33 12 44-2 4-5 4-6 4-16v-12l10-12c6-6 12-11 13-10s1 18 1 42v40l-6 6c-11 10-14 21-9 33 5 9 15 16 25 16s20-7 25-16c5-11 2-24-8-33l-6-4 1-43 1-43 11 12 13 11-2 8c-2 24 23 40 43 28 24-17 10-54-20-50l-7 0-20-19-20-19v-56l-26-27c-15-15-28-28-28-29s10-2 40-2h39l6 7c6 8 12 11 21 11 12 0 24-8 27-19 7-23-17-44-39-33-2 1-6 5-9 8l-5 6h-104l-31-32-32-32v-29c0-19 0-29 1-29s12 8 25 22l23 22h66l5 7c13 16 38 14 47-4 8-18-3-38-22-40-9-1-19 2-25 11l-5 6h-57l-26-26c-18-18-27-27-25-27 1-1 64-1 140-1h137l4 5 4 4 0 139 1 139 43 1c45 0 47 1 51 9 4 8 3 10-48 62l-48 48v66c0 70 0 71-7 75-2 1-18 2-40 2-41 0-42-1-45-10-1-2-2-11-2-20s0-17-1-17-46 45-100 99l-100 100h-13l-196-197c-191-191-197-196-197-201 0-4 1-7 5-11l4-4 42-1c32 0 44-1 45-2s1-64 1-139c0-91 0-138 1-140 4-7 0-7 148-7 76 0 139 0 140 1v0z m-131 56c1 1 3 4 4 6 0 3 0 5-4 9-5 5-9 5-14 1-8-6-3-19 7-19 3 0 6 1 7 3z m304 1c3 3 4 5 4 8 0 9-11 13-18 6-5-5-4-14 3-17 5-2 6-1 11 3z m-216 87c3 1 4 5 4 7 0 5-6 12-11 12-4 0-11-6-11-10 0-3 3-8 6-10 3-3 8-3 12 1z m268 12c2 1 4 5 4 7 0 10-12 14-19 6-4-5-4-8 0-13s10-5 15 0z m-371 2c2 3 5 6 5 8 0 3-8 11-12 11-2 0-5-2-7-4s-5-6-5-7 2-5 5-8 5-4 7-4 5 2 7 4z m233 83c3 3 4 5 4 8 0 11-13 15-19 8-4-6-4-9 1-14s9-5 14-2z m-246 15c4 2 6 10 4 15-4 7-13 8-18 3-7-9 3-24 14-18v0z m256 85c4 2 7 7 7 11 0 1-1 3-3 6-4 5-11 5-16 1s-4-13 1-17c5-3 6-3 11-1z m128 2c10 10-4 25-15 15-2-2-3-5-3-7 0-5 5-11 10-11 3 0 6 1 8 3z m-296 2c5 4 7 9 4 14-5 8-16 8-20-1-2-5 0-11 5-14 5-2 7-2 11 1z m234 73c2 1 2 5 2 8 0 10-11 15-18 8-3-3-3-12 1-15 3-4 11-5 15-1z m-309 1c7 5 2 20-8 20-2 0-5-1-7-3s-4-6-4-8c0-9 12-14 19-9z m105 45c2 2 3 5 3 7 0 5-6 12-11 12-2 0-5-2-7-4-10-10 4-25 15-15z m124 0c7 6 2 19-7 19-6 0-11-6-10-14 1-8 11-10 17-5v0z" horiz-adv-x="984.9" />

<glyph glyph-name="css3-alt" unicode="&#xf38b;" d="M0 788h750l-68-773-307-103-307 103z m612-157h-473l11-92h240l-13-5-219-92 7-90 1 0v0l324-1-7-120-107-30-102 26-7 74h-95l12-144 193-57 192 56 25 286-217 1 225 96z" horiz-adv-x="750" />

<glyph glyph-name="shield-alt" unicode="&#xf3ed;" d="M911 687c35-15 58-49 58-87 0-432-266-673-433-743-23-9-49-9-72 0-209 87-433 355-433 743 0 38 23 72 58 87l375 156c10 4 26 7 36 7 10 0 27-3 36-7z m-411-709c183 91 337 306 344 601l-344 144z" horiz-adv-x="1000" />

<glyph glyph-name="tv-retro" unicode="&#xf401;" d="M781 373v16c0 13 11 24 24 24h15c13 0 24-11 24-24v-16c0-12-11-23-24-23h-15c-13 0-24 11-24 23z m24-148c-13 0-24 11-24 23v16c0 13 11 24 24 24h15c13 0 24-11 24-24v-16c0-12-11-23-24-23h-15z m-71 267c0 0 15-1 15-204s-15-205-15-205 0-14-281-14-282 14-282 14-15 1-15 205 15 204 15 204 4 14 282 14 281-14 281-14z m266 77v-563c0-52-42-94-94-94h-31v-62h-94l-21 62h-520l-21-62h-94v62h-31c-52 0-94 42-94 94v563c0 52 42 94 94 94h275l-105 107c-19 19-18 49 0 67 19 18 48 17 66-1l170-173 170 173c18 19 48 19 66 1 19-19 19-48 1-67l-106-107h275c52 0 94-42 94-94z m-94 0h-812v-563h812v563z" horiz-adv-x="1000" />

<glyph glyph-name="php" unicode="&#xf457;" d="M625 646c-335 0-592-141-592-296s257-296 592-296c335 0 592 141 592 296s-257 296-592 296z m0 33c345 0 625-147 625-329s-280-329-625-329-625 147-625 329 280 329 625 329z m-199-303c15 75-36 67-110 67l-27-137c67 0 122-9 137 70z m-236-210l64 329h138c42 0 72-10 91-32 36-42 23-125-28-172-46-43-96-38-176-38l-17-87h-72z m363 417h71l-17-87c62 0 119 4 146-21 29-27 15-61-16-221h-72c30 155 36 168 25 179-11 12-35 9-93 9l-37-188h-71z m433-207c15 75-35 67-110 67l-27-137c66 0 122-10 137 70z m-236-210l65 329h138c41 0 71-10 90-32 37-42 23-125-28-172-45-43-91-38-176-38l-17-87h-72z" horiz-adv-x="1250" />

<glyph glyph-name="user-check" unicode="&#xf4fc;" d="M438 350c-139 0-250 112-250 250s111 250 250 250 250-112 250-250-112-250-250-250z m175-62c144 0 262-118 262-263v-81c0-52-42-94-94-94h-687c-52 0-94 42-94 94v81c0 145 118 263 263 263h32c44-20 92-32 143-32s99 12 142 32h33z m630 250c9-9 9-23 0-32l-276-274c-9-9-24-9-33 0l-159 161c-9 9-9 23 0 32l55 55c9 9 24 9 33 0l89-90 204 203c9 9 24 9 33 0z" horiz-adv-x="1250" />

<glyph glyph-name="users-medical" unicode="&#xf830;" d="M188 413c-69 0-125 56-125 125 0 69 56 125 125 125s125-56 125-125-56-125-125-125z m437-63h0c-121 0-219 98-219 219v0c0 121 98 219 219 219s219-98 219-219-98-219-219-219z m63-187c0-103 50-194 127-251h-471c-52 0-94 42-94 94v57c0 124 101 225 225 225h16c41-20 86-32 134-32 23 0 60 6 82 12-12-33-19-68-19-105z m-350 151c-70-39-136-134-147-214h-128c-35 0-63 28-63 63v62c0 69 56 125 125 125h125c29 0 68-16 88-36z m662 99c138 0 250-112 250-250s-112-251-250-251-250 113-250 251 112 250 250 250z m125-282v63c0 6-5 10-10 10h-73v73c0 6-5 11-11 11v0h-62c-6 0-11-5-11-11v-73h-73c-5 0-10-4-10-10v-63c0-5 5-10 10-10v0h73v-73c0-6 5-10 11-10h62c6 0 11 4 11 10v73h73c5 0 10 5 10 10z" horiz-adv-x="1250" />
</font>
</defs>
</svg>
